Loading...
 * Dettagli Torrent   globale  | Commenti (0) 


- Sully (2016).H264.Italian.English.Ac3.5.1.sub.ita.NUita.eng.iCV-MIRCrew -


Download via torrent:
Categoria bittorrent BDRip
Descrizione
Sully (2016).H264.Italian.English.Ac3.5.1.sub.ita.NUita.eng.iCV-MIRCrew


[center]by www.icv-crew.org


NO FOUND ONLY ORIGINAL RELEASE



My release is always in double track audio italian and Original audio
for select it use VLC or dvd player home
not use wmp

Sully (2016)







   DATA USCITA: 01 dicembre 2016
   GENERE: Biografico, Drammatico
   ANNO: 2016
   REGIA: Clint Eastwood
   SCENEGGIATURA: Todd Komarnicki
   FOTOGRAFIA: Tom Stern
   MONTAGGIO: Blu Murray
   MUSICHE: Christian Jacob, Tierney Sutton Band
   PRODUZIONE: BBC Films, FilmNation Entertainment, Flashlight Films
   DISTRIBUZIONE: Warner Bros.
   PAESE: USA
   DURATA: 96 Min



Tom Hanks, Aaron Eckhart, Laura Linney, Anna Gunn, Mike O'Malley, Ann Cusack, Sam Huntington, Jamey Sheridan, Autumn Reeser, Jerry Ferrara, Jeff Kober, Holt McCallany, Molly Hagan, Chris Bauer, Michael Rapaport



Il 15 Gennaio 2009, il mondo assiste al "Miracolo sull'Hudson" quando il capitano Chesley "Sully" Sullenberger effettua un atterraggio di emergenza col suo aereo nelle acque gelide del fiume Hudson, salvando la vita a tutti i 155 passeggeri presenti a bordo. ..............



The story of Chesley Sullenberger, an American pilot who became a hero after landing his damaged plane on the Hudson River in order to save the flight's passengers and crew.








[spoiler]
General
Unique ID                                : 205155959464917076284063650051556826473 (0x9A5799BE51D639128460A468386ADD69)
Complete name                            : Sully (2016).H264.ita.sub.ita.NUita.eng.iCV-MIRCrew.mkv
Format                                   : Matroska
Format version                           : Version 2
File size                                : 1.38 GiB
Duration                                 : 1h 35mn
Overall bit rate                         : 2 063 Kbps
Movie name                               : VISIT www.icv-crew.org
Encoded date                             : UTC 2017-03-06 16:14:55
Writing application                      : Lavf54.63.100
Writing library                          : Lavf54.63.100
COPYRIGHT                                : robbyrs

Video
ID                                       : 1
Format                                   : AVC
Format/Info                              : Advanced Video Codec
Format profile                           : [email protected]
Format settings, CABAC                   : Yes
Format settings, ReFrames                : 2 frames
Codec ID                                 : V_MPEG4/ISO/AVC
Duration                                 : 1h 35mn
Bit rate                                 : 1 290 Kbps
Width                                    : 720 pixels
Height                                   : 304 pixels
Display aspect ratio                     : 2.40:1
Frame rate mode                          : Variable
Frame rate                               : 23.976 fps
Color space                              : YUV
Chroma subsampling                       : 4:2:0
Bit depth                                : 8 bits
Scan type                                : Progressive
Bits/(Pixel*Frame)                       : 0.246
Stream size                              : 860 MiB (61%)
Writing library                          : x264 core 130 r2273
Encoding settings                        : cabac=1 / ref=2 / deblock=1:0:0 / analyse=0x1:0x131 / me=hex / subme=7 / psy=1 / psy_rd=1.00:0.00 / mixed_ref=0 / me_range=16 / chroma_me=1 / trellis=1 / 8x8dct=0 / cqm=0 / deadzone=21,11 / fast_pskip=1 / chroma_qp_offset=-2 / threads=12 / lookahead_threads=2 / sliced_threads=0 / nr=0 / decimate=1 / interlaced=0 / bluray_compat=0 / constrained_intra=0 / bframes=3 / b_pyramid=0 / b_adapt=1 / b_bias=0 / direct=3 / weightb=1 / open_gop=0 / weightp=2 / keyint=230 / keyint_min=23 / scenecut=40 / intra_refresh=0 / rc_lookahead=40 / rc=2pass / mbtree=1 / bitrate=1290 / ratetol=1.0 / qcomp=0.60 / qpmin=10 / qpmax=69 / qpstep=4 / cplxblur=20.0 / qblur=0.5 / vbv_maxrate=24000 / vbv_bufsize=24000 / nal_hrd=none / ip_ratio=1.40 / aq=1:1.00
Language                                 : Italian
Default                                  : Yes
Forced                                   : No
DURATION                                 : 01:35:50.620000000
NUMBER_OF_FRAMES                         : 137877
NUMBER_OF_BYTES                          : 6937524158
_STATISTICS_WRITING_APP                  : mkvmerge v8.7.0 ('All of the above') 64bit
_STATISTICS_WRITING_DATE_UTC             : 2017-03-01 22:14:11
_STATISTICS_TAGS                         : BPS DURATION NUMBER_OF_FRAMES NUMBER_OF_BYTES

Audio #1
ID                                       : 2
Format                                   : AC-3
Format/Info                              : Audio Coding 3
Mode extension                           : CM (complete main)
Codec ID                                 : A_AC3
Duration                                 : 1h 35mn
Bit rate mode                            : Constant
Bit rate                                 : 384 Kbps
Channel(s)                               : 6 channels
Channel positions                        : Front: L C R, Side: L R, LFE
Sampling rate                            : 48.0 KHz
Bit depth                                : 16 bits
Compression mode                         : Lossy
Delay relative to video                  : 1mn 5s
Stream size                              : 263 MiB (19%)
Title                                    : AC3 ITA
Language                                 : Italian
Default                                  : Yes
Forced                                   : No
DURATION                                 : 01:35:51.744000000
NUMBER_OF_FRAMES                         : 179742
NUMBER_OF_BYTES                          : 276083712
_STATISTICS_WRITING_APP                  : mkvmerge v8.7.0 ('All of the above') 64bit
_STATISTICS_WRITING_DATE_UTC             : 2017-03-01 22:14:11
_STATISTICS_TAGS                         : BPS DURATION NUMBER_OF_FRAMES NUMBER_OF_BYTES

Audio #2
ID                                       : 3
Format                                   : AC-3
Format/Info                              : Audio Coding 3
Mode extension                           : CM (complete main)
Codec ID                                 : A_AC3
Duration                                 : 1h 35mn
Bit rate mode                            : Constant
Bit rate                                 : 384 Kbps
Channel(s)                               : 6 channels
Channel positions                        : Front: L C R, Side: L R, LFE
Sampling rate                            : 48.0 KHz
Bit depth                                : 16 bits
Compression mode                         : Lossy
Delay relative to video                  : 1mn 5s
Stream size                              : 263 MiB (19%)
Title                                    : AC3 ENG
Language                                 : English
Default                                  : No
Forced                                   : No
DURATION                                 : 01:35:50.688000000
NUMBER_OF_FRAMES                         : 179709
NUMBER_OF_BYTES                          : 460055040
_STATISTICS_WRITING_APP                  : mkvmerge v8.7.0 ('All of the above') 64bit
_STATISTICS_WRITING_DATE_UTC             : 2017-03-01 22:14:11
_STATISTICS_TAGS                         : BPS DURATION NUMBER_OF_FRAMES NUMBER_OF_BYTES

Text #1
ID                                       : 4
Format                                   : ASS
Codec ID                                 : S_TEXT/ASS
Codec ID/Info                            : Advanced Sub Station Alpha
Compression mode                         : Lossless
Title                                    : FORCED
Language                                 : Italian
Default                                  : Yes
Forced                                   : No
DURATION                                 : 01:32:30.093000000
NUMBER_OF_FRAMES                         : 49
NUMBER_OF_BYTES                          : 1517
_STATISTICS_WRITING_APP                  : mkvmerge v8.7.0 ('All of the above') 64bit
_STATISTICS_WRITING_DATE_UTC             : 2017-03-01 22:14:11
_STATISTICS_TAGS                         : BPS DURATION NUMBER_OF_FRAMES NUMBER_OF_BYTES

Text #2
ID                                       : 5
Format                                   : ASS
Codec ID                                 : S_TEXT/ASS
Codec ID/Info                            : Advanced Sub Station Alpha
Compression mode                         : Lossless
Title                                    : NON UDENTI
Language                                 : Italian
Default                                  : No
Forced                                   : No
DURATION                                 : 01:35:44.126000000
NUMBER_OF_FRAMES                         : 1669
NUMBER_OF_BYTES                          : 49522
_STATISTICS_WRITING_APP                  : mkvmerge v8.7.0 ('All of the above') 64bit
_STATISTICS_WRITING_DATE_UTC             : 2017-03-01 22:14:11
_STATISTICS_TAGS                         : BPS DURATION NUMBER_OF_FRAMES NUMBER_OF_BYTES

Text #3
ID                                       : 6
Format                                   : ASS
Codec ID                                 : S_TEXT/ASS
Codec ID/Info                            : Advanced Sub Station Alpha
Compression mode                         : Lossless
Title                                    : REGULAR
Language                                 : English
Default                                  : No
Forced                                   : No
DURATION                                 : 01:31:56.451000000
NUMBER_OF_FRAMES                         : 1524
NUMBER_OF_BYTES                          : 49480
_STATISTICS_WRITING_APP                  : mkvmerge v8.7.0 ('All of the above') 64bit
_STATISTICS_WRITING_DATE_UTC             : 2017-03-01 22:14:11
_STATISTICS_TAGS                         : BPS DURATION NUMBER_OF_FRAMES NUMBER_OF_BYTES

Text #4
ID                                       : 7
Format                                   : ASS
Codec ID                                 : S_TEXT/ASS
Codec ID/Info                            : Advanced Sub Station Alpha
Compression mode                         : Lossless
Title                                    : NON UDENTI
Language                                 : English
Default                                  : No
Forced                                   : No
DURATION                                 : 01:31:58.179000000
NUMBER_OF_FRAMES                         : 1641
NUMBER_OF_BYTES                          : 58243
_STATISTICS_WRITING_APP                  : mkvmerge v8.7.0 ('All of the above') 64bit
_STATISTICS_WRITING_DATE_UTC             : 2017-03-01 22:14:11
_STATISTICS_TAGS                         : BPS DURATION NUMBER_OF_FRAMES NUMBER_OF_BYTES

Menu
00:00:00.000                             : :00:00:00.000
00:11:12.505                             : :00:11:12.505
00:18:06.168                             : :00:18:06.168
00:29:57.921                             : :00:29:57.921
00:38:55.416                             : :00:38:55.416
00:49:20.749                             : :00:49:20.749
01:00:50.856                             : :01:00:50.856
01:08:16.384                             : :01:08:16.384
01:18:09.810                             : :01:18:09.810
01:26:59.798                             : :01:26:59.798


[/spoiler]

[/center]

Info: Per scaricare devi usare un client come uTorrent o Transmission
AnnounceURL
udp://tracker.coppersurfer.tk:6969/announce
Hash f44e7e4eb42f5b5863cd6864db113504f1db371a
Peers seeds: 442 , leech: 115
Size 1.38 GB
Completato 3612x
Aggiunto 10.03.17 - 13:03:15
Uploader   robbyrs
Votazione (Voti: 2)


Condividi questo bittorrent:


html/blog:


bbcode/forum:




Aggiungi Commento