Loading...
 * Dettagli Torrent   globale  | Commenti (0) 


- Marvels Luke Cage S01e01-13, [Mux - H264 - 1080p - Ita Eng Ac3 5.1 - Sub Ita Eng] DLMux by sp_54321 -


Download via torrent:
Categoria bittorrent SerieTv
Descrizione
[center] Marvel's Luke Cage - STAGIONE NR. 1 - PUNTATA N.  1-13 FULLHD 5.1



[/center]

[embed=youtube]http://www.youtube.com/watch?v=ytkjQvSk2VA[/embed]

.: Scheda della serie :.
Ideatore Cheo Hodari Coker
Soggetto Archie Goodwin, George Tuska, Roy Thomas, John Romita Sr. (fumetto)

Paese Stati Uniti d'America
Anno 2016 – in produzione
Formato serie TV
Genere azione, supereroi, crimine
Stagioni 1
Episodi 13
Durata 46-62 min (episodio)
Lingua originale inglese


Cast:
Mike Colter: Luke Cage
Mahershala Ali: Cornell "Cottonmouth" Stokes
Simone Missick: Misty Knight
Theo Rossi: Hernan "Shades" Alvarez
Erik LaRay Harvey: Willis "Diamondback" Stryker
Rosario Dawson: Claire Temple
Alfre Woodard: Mariah Dillard


.: Info :.
Marvel's Luke Cage, nota semplicemente come Luke Cage, è una serie televisiva statunitense sviluppata da Cheo Hodari Coker per Netflix e basata sull'omonimo personaggio dei fumetti Marvel Comics. La serie è ambientata all'interno del Marvel Cinematic Universe (MCU), ed è il terzo di una serie di show che condurranno al crossover The Defenders. La serie è prodotta dalla Marvel Television in associazione con gli ABC Studios, con Coker nel ruolo di showrunner.

Protagonista della serie è Mike Colter nei panni di Cage, un ex-carcerato dotato di superforza e dalla pelle indistruttibile che combatte il crimine per le strade di New York. Fanno parte del cast anche Mahershala Ali, Simone Missick, Theo Rossi, Erik LaRay Harvey, Rosario Dawson e Alfre Woodard. Lo sviluppo della serie è cominciato a fine 2013. Nel dicembre 2014 Colter è stato scelto come interprete di Cage, che è un personaggio ricorrente in Marvel's Jessica Jones. Nel marzo 2015 Coker è stato scelto come showrunner. Le riprese sono cominciate a New York nel settembre 2015 e sono terminate nel marzo 2016.

Tutti gli episodi della prima stagione sono stati pubblicati il 30 settembre 2016.

Dopo che un esperimento sabotato gli dona forza sovrumana e pelle indistruttibile, Luke Cage diventa un fuggitivo e cerca di ricostruire la sua vita ad Harlem, ma ben presto il passato torna a perseguitarlo.


.: ScreenShot puntata :.
       


.: Dati Tecnici :.
[spoiler="Technical Information"]

Code

General
Unique ID                                : 20235642715752517936904811134298049930 (0xF393E36E33C615941EA436CCF674D8A)
Complete name                            : Marvels.Luke.Cage.1x01.Moment.Of.Truth.ITA.ENG.1080p.WEBMux.x264.AC35.1-sp_54321/Marvels.Luke.Cage.1x01.Moment.Of.Truth.ITA.ENG.1080p.WEBMux.x264.AC35.1-sp_54321.mkv
Format                                   : Matroska
Format version                           : Version 4 / Version 2
File size                                : 2.41 GiB
Duration                                 : 54 min
Overall bit rate                         : 6 373 kb/s
Encoded date                             : UTC 2016-10-16 13:08:37
Writing application                      : mkvmerge v9.4.2 ('So High') 64bit
Writing library                          : libebml v1.3.4 + libmatroska v1.4.5

Video
ID                                       : 1
Format                                   : AVC
Format/Info                              : Advanced Video Codec
Format profile                           : [email protected]
Format settings, CABAC                   : Yes
Format settings, ReFrames                : 4 frames
Codec ID                                 : V_MPEG4/ISO/AVC
Duration                                 : 54 min
Bit rate                                 : 5 347 kb/s
Width                                    : 1 920 pixels
Height                                   : 1 080 pixels
Display aspect ratio                     : 16:9
Frame rate mode                          : Constant
Frame rate                               : 23.976 (24000/1001) FPS
Color space                              : YUV
Chroma subsampling                       : 4:2:0
Bit depth                                : 8 bits
Scan type                                : Progressive
Bits/(Pixel*Frame)                       : 0.108
Stream size                              : 2.02 GiB (84%)
Writing library                          : x264 core 142 r2491 24e4fed
Encoding settings                        : cabac=1 / ref=4 / deblock=1:-1:-1 / analyse=0x1:0x131 / me=umh / subme=10 / psy=1 / psy_rd=1,00:0,15 / mixed_ref=1 / me_range=24 / chroma_me=1 / trellis=2 / 8x8dct=0 / cqm=0 / deadzone=21,11 / fast_pskip=1 / chroma_qp_offset=-3 / threads=3 / lookahead_threads=1 / sliced_threads=0 / nr=0 / decimate=1 / interlaced=0 / bluray_compat=0 / constrained_intra=0 / bframes=8 / b_pyramid=2 / b_adapt=2 / b_bias=0 / direct=3 / weightb=1 / open_gop=0 / weightp=2 / keyint=240 / keyint_min=24 / scenecut=40 / intra_refresh=0 / rc_lookahead=60 / rc=crf / mbtree=1 / crf=21,0 / qcomp=0,60 / qpmin=0 / qpmax=69 / qpstep=4 / vbv_maxrate=20000 / vbv_bufsize=25000 / crf_max=0,0 / nal_hrd=none / filler=0 / ip_ratio=1,40 / aq=1:1,00
Language                                 : English
Default                                  : Yes
Forced                                   : No
Color range                              : Limited
Color primaries                          : BT.709
Transfer characteristics                 : BT.709
Matrix coefficients                      : BT.709

Audio #1
ID                                       : 2
Format                                   : AC-3
Format/Info                              : Audio Coding 3
Mode extension                           : CM (complete main)
Format settings, Endianness              : Big
Codec ID                                 : A_AC3
Duration                                 : 54 min
Bit rate mode                            : Constant
Bit rate                                 : 384 kb/s
Channel(s)                               : 6 channels
Channel positions                        : Front: L C R, Side: L R, LFE
Sampling rate                            : 48.0 kHz
Frame rate                               : 31.250 FPS (1536 spf)
Compression mode                         : Lossy
Stream size                              : 148 MiB (6%)
Title                                    : Italiano
Language                                 : Italian
Default                                  : Yes
Forced                                   : Yes

Audio #2
ID                                       : 3
Format                                   : AC-3
Format/Info                              : Audio Coding 3
Mode extension                           : CM (complete main)
Format settings, Endianness              : Big
Codec ID                                 : A_AC3
Duration                                 : 54 min
Bit rate mode                            : Constant
Bit rate                                 : 640 kb/s
Channel(s)                               : 6 channels
Channel positions                        : Front: L C R, Side: L R, LFE
Sampling rate                            : 48.0 kHz
Frame rate                               : 31.250 FPS (1536 spf)
Compression mode                         : Lossy
Stream size                              : 247 MiB (10%)
Title                                    : English
Language                                 : English
Default                                  : No
Forced                                   : No

Text #1
ID                                       : 4
Format                                   : UTF-8
Codec ID                                 : S_TEXT/UTF8
Codec ID/Info                            : UTF-8 Plain Text
Duration                                 : 46 min
Bit rate                                 : 0 b/s
Count of elements                        : 9
Stream size                              : 261 Bytes (0%)
Title                                    : ITA - Forced
Language                                 : Italian
Default                                  : Yes
Forced                                   : Yes

Text #2
ID                                       : 5
Format                                   : UTF-8
Codec ID                                 : S_TEXT/UTF8
Codec ID/Info                            : UTF-8 Plain Text
Duration                                 : 52 min
Bit rate                                 : 55 b/s
Count of elements                        : 730
Stream size                              : 21.5 KiB (0%)
Title                                    : Italiano
Language                                 : Italian
Default                                  : No
Forced                                   : No

Text #3
ID                                       : 6
Format                                   : UTF-8
Codec ID                                 : S_TEXT/UTF8
Codec ID/Info                            : UTF-8 Plain Text
Duration                                 : 52 min
Bit rate                                 : 58 b/s
Count of elements                        : 738
Stream size                              : 22.7 KiB (0%)
Title                                    : English
Language                                 : English
Default                                  : No
Forced                                   : No

General
Complete name                            : Marvels.Luke.Cage.1x01.Moment.Of.Truth.ITA.ENG.1080p.WEBMux.x264.AC35.1-sp_54321/Subs/Marvels.Luke.Cage.1x01.Moment.Of.Truth.ITA.ENG.1080p.WEBMux.x264.AC35.1-sp_54321.en.srt
Format                                   : SubRip
File size                                : 51.4 KiB

Text
Format                                   : SubRip
Compression mode                         : Lossless

General
Complete name                            : Marvels.Luke.Cage.1x01.Moment.Of.Truth.ITA.ENG.1080p.WEBMux.x264.AC35.1-sp_54321/Subs/Marvels.Luke.Cage.1x01.Moment.Of.Truth.ITA.ENG.1080p.WEBMux.x264.AC35.1-sp_54321.ita.srt
Format                                   : SubRip
File size                                : 49.9 KiB

Text
Format                                   : SubRip
Compression mode                         : Lossless

General
Complete name                            : Marvels.Luke.Cage.1x01.Moment.Of.Truth.ITA.ENG.1080p.WEBMux.x264.AC35.1-sp_54321/Subs/Marvels.Luke.Cage.1x01.Moment.Of.Truth.ITA.ENG.1080p.WEBMux.x264.AC35.1-sp_54321.srt
Format                                   : SubRip
File size                                : 567 Bytes

Text
Format                                   : SubRip
Compression mode                         : Lossless

[/spoiler]


.: Ringraziamenti :.
  Novarip    per la traccia audio in italiano in 5.1!!!!! :popcorn:
  Pir8               per la sua guida sul Muxing
  italiansubs    per i sottotitoli in italiano

.: Note :.
L'audio in italiano l'ho preso dal rilascio dei Novarip (mille grazie per quello che fate), mentre la traccia video e` quella 1080p ricompressa, le varie puntate passano da 10-15Mbit/s a 5-7.5Mbit/s, per avere dimensioni di file piu` umane.
Per la seconda puntata ho risincronizzato l'audio con il video 1080p che avevo trovato (e` dei DEFLATE, non degli SKGTV)
La directory Subs contiene i sottotitoli integrati nei file mkv
La directory Audio.Ita contiene le tracce in italiano dei Novarip

.: Stato di Salute del torrent :.
Info: Per scaricare devi usare un client come uTorrent o Transmission
AnnounceURL
udp://tracker.publicbt.com:80
Hash 14b2f791ee22f4b73ab12de2df72c0d646713cc4
Peers seeds: 0 , leech: 0
Size 32.68 GB
Completato 0x
Aggiunto 28.10.16 - 15:10:33
Uploader   sp_54321
Votazione (Voti: 1)


Condividi questo bittorrent:


html/blog:


bbcode/forum:




Aggiungi Commento