Loading...
 * Dettagli Torrent   globale  | Commenti (6) 


- Captain America - Civil War (2016).720p.H264.Italian.English.Ac3.5.1.sub.ita.eng.iCV-MIRCrew -


Download via torrent:
Categoria bittorrent BDRip
Descrizione
Captain America - Civil War (2016).720p.H264.Italian.English.Ac3.5.1.sub.ita.eng.iCV-MIRCrew

by www.icv-crew.org

[center]


NO FOUND ONLY ORIGINAL RELEASE

My release is always in double track audio italian and Original audio
for select it use VLC or dvd player home
not use wmp

Captain America - Civil War

(2016)



english and italian subtitle inside







   DATA USCITA: 04 maggio 2016
   GENERE: Azione , Fantascienza , Fantasy
   ANNO: 2016
   REGIA: Anthony Russo, Joe Russo
   SCENEGGIATURA: Christopher Markus, Stephen McFeely
   FOTOGRAFIA: Trent Opaloch
   MONTAGGIO: Jeffrey Ford, Matthew Schmidt
   MUSICHE: Henry Jackman
   PRODUZIONE: Marvel Entertainment, Marvel Studios, Studio Babelsberg.
   DISTRIBUZIONE: Walt Disney Studios Motion Pictures.
   PAESE: USA
   DURATA: 146 Min
   FORMATO: 2D e 3D



Chris Evans, Robert Downey Jr., Scarlett Johansson, Sebastian Stan, Jeremy Renner, Daniel Bruehl, Frank Grillo, Don Cheadle, Paul Bettany, Chadwick Boseman, Anthony Mackie, Tom Holland, Elizabeth Olsen, Paul Rudd, Emily Vancamp, Martin Freeman, William Hurt, Marisa Tomei, John Slattery, Alfre Woodard, Hope Davis



Il nuovo film Marvel Captain America 3 Civil War vede Steve Rogers al comando della nuova squadra degli Avengers, intenti a proseguire la loro lotta per salvaguardare l'umanità. Ma, quando un altro incidente internazionale in cui sono coinvolti gli Avengers provoca dei danni collaterali, le pressioni politiche chiedono a gran voce l'installazione di un sistema di responsabilità e........................



With many people fearing the actions of super heroes, the government decides to push for the Hero Registration Act, a law that limits a hero's actions. This results in a division in The Avengers. Iron Man stands with this Act, claiming that their actions must be kept in check otherwise cities will continue to be destroyed, but Captain America feels that saving the world is daring enough and that they cannot rely on the government to protect the world..............................







[spoiler]
General
Unique ID                                : 12422444980529306071948758916315003661 (0x95879D3141083ED9B239741816CBB0D)
Complete name                            : Captain America - Civil War (2016).720p.H264.ita.eng.sub.ita.eng.iCV-MIRCrew.mkv
Format                                   : Matroska
Format version                           : Version 2
File size                                : 3.51 GiB
Duration                                 : 2h 27mn
Overall bit rate                         : 3 401 Kbps
Movie name                               : www.icv-crew.org
Encoded date                             : UTC 2016-09-08 19:36:54
Writing application                      : Lavf54.63.100
Writing library                          : Lavf54.63.100

Video
ID                                       : 1
Format                                   : AVC
Format/Info                              : Advanced Video Codec
Format profile                           : [email protected]
Format settings, CABAC                   : Yes
Format settings, ReFrames                : 2 frames
Codec ID                                 : V_MPEG4/ISO/AVC
Duration                                 : 2h 27mn
Bit rate                                 : 2 500 Kbps
Width                                    : 1 270 pixels
Height                                   : 532 pixels
Display aspect ratio                     : 2.40:1
Frame rate mode                          : Variable
Frame rate                               : 23.976 fps
Color space                              : YUV
Chroma subsampling                       : 4:2:0
Bit depth                                : 8 bits
Scan type                                : Progressive
Bits/(Pixel*Frame)                       : 0.154
Stream size                              : 2.51 GiB (72%)
Writing library                          : x264 core 130 r2273
Encoding settings                        : cabac=1 / ref=2 / deblock=1:0:0 / analyse=0x1:0x131 / me=hex / subme=7 / psy=1 / psy_rd=1.00:0.00 / mixed_ref=0 / me_range=16 / chroma_me=1 / trellis=1 / 8x8dct=0 / cqm=0 / deadzone=21,11 / fast_pskip=1 / chroma_qp_offset=-2 / threads=12 / lookahead_threads=2 / sliced_threads=0 / nr=0 / decimate=1 / interlaced=0 / bluray_compat=0 / constrained_intra=0 / bframes=3 / b_pyramid=0 / b_adapt=1 / b_bias=0 / direct=3 / weightb=1 / open_gop=0 / weightp=2 / keyint=230 / keyint_min=23 / scenecut=40 / intra_refresh=0 / rc_lookahead=40 / rc=2pass / mbtree=1 / bitrate=2500 / ratetol=1.0 / qcomp=0.60 / qpmin=10 / qpmax=69 / qpstep=4 / cplxblur=20.0 / qblur=0.5 / vbv_maxrate=24000 / vbv_bufsize=24000 / nal_hrd=none / ip_ratio=1.40 / aq=1:1.00
Default                                  : Yes
Forced                                   : No
DURATION                                 : 02:27:41.936000000
NUMBER_OF_FRAMES                         : 212474
NUMBER_OF_BYTES                          : 9746678725
_STATISTICS_WRITING_APP                  : mkvmerge v9.4.0 ('Knurl') 32bit
_STATISTICS_WRITING_DATE_UTC             : 2016-09-07 13:11:00
_STATISTICS_TAGS                         : BPS DURATION NUMBER_OF_FRAMES NUMBER_OF_BYTES

Audio #1
ID                                       : 2
Format                                   : AC-3
Format/Info                              : Audio Coding 3
Mode extension                           : CM (complete main)
Codec ID                                 : A_AC3
Duration                                 : 2h 27mn
Bit rate mode                            : Constant
Bit rate                                 : 448 Kbps
Channel(s)                               : 6 channels
Channel positions                        : Front: L C R, Side: L R, LFE
Sampling rate                            : 48.0 KHz
Bit depth                                : 16 bits
Compression mode                         : Lossy
Delay relative to video                  : 1mn 5s
Stream size                              : 473 MiB (13%)
Language                                 : Italian
Default                                  : No
Forced                                   : No
DURATION                                 : 02:27:41.952000000
NUMBER_OF_FRAMES                         : 276936
NUMBER_OF_BYTES                          : 708956160
_STATISTICS_WRITING_APP                  : mkvmerge v9.4.0 ('Knurl') 32bit
_STATISTICS_WRITING_DATE_UTC             : 2016-09-07 13:11:00
_STATISTICS_TAGS                         : BPS DURATION NUMBER_OF_FRAMES NUMBER_OF_BYTES

Audio #2
ID                                       : 3
Format                                   : AC-3
Format/Info                              : Audio Coding 3
Mode extension                           : CM (complete main)
Codec ID                                 : A_AC3
Duration                                 : 2h 27mn
Bit rate mode                            : Constant
Bit rate                                 : 448 Kbps
Channel(s)                               : 6 channels
Channel positions                        : Front: L C R, Side: L R, LFE
Sampling rate                            : 48.0 KHz
Bit depth                                : 16 bits
Compression mode                         : Lossy
Delay relative to video                  : 1mn 5s
Stream size                              : 473 MiB (13%)
Language                                 : English
Default                                  : No
Forced                                   : No
DURATION                                 : 02:27:41.942000000
NUMBER_OF_FRAMES                         : 830807
NUMBER_OF_BYTES                          : 1671583812
_STATISTICS_WRITING_APP                  : mkvmerge v9.4.0 ('Knurl') 32bit
_STATISTICS_WRITING_DATE_UTC             : 2016-09-07 13:11:00
_STATISTICS_TAGS                         : BPS DURATION NUMBER_OF_FRAMES NUMBER_OF_BYTES

Text #1
ID                                       : 4
Format                                   : ASS
Codec ID                                 : S_TEXT/ASS
Codec ID/Info                            : Advanced Sub Station Alpha
Compression mode                         : Lossless
Title                                    : Sub. Ita. Forced
Language                                 : Italian
Default                                  : Yes
Forced                                   : Yes
DURATION                                 : 02:26:18.987000000
NUMBER_OF_FRAMES                         : 77
NUMBER_OF_BYTES                          : 1363
_STATISTICS_WRITING_APP                  : mkvmerge v9.4.0 ('Knurl') 32bit
_STATISTICS_WRITING_DATE_UTC             : 2016-09-07 13:11:00
_STATISTICS_TAGS                         : BPS DURATION NUMBER_OF_FRAMES NUMBER_OF_BYTES

Text #2
ID                                       : 5
Format                                   : ASS
Codec ID                                 : S_TEXT/ASS
Codec ID/Info                            : Advanced Sub Station Alpha
Compression mode                         : Lossless
Title                                    : Sub. Ita.
Language                                 : Italian
Default                                  : No
Forced                                   : No
DURATION                                 : 02:26:18.987000000
NUMBER_OF_FRAMES                         : 1721
NUMBER_OF_BYTES                          : 54441
_STATISTICS_WRITING_APP                  : mkvmerge v9.4.0 ('Knurl') 32bit
_STATISTICS_WRITING_DATE_UTC             : 2016-09-07 13:11:00
_STATISTICS_TAGS                         : BPS DURATION NUMBER_OF_FRAMES NUMBER_OF_BYTES

Text #3
ID                                       : 6
Format                                   : ASS
Codec ID                                 : S_TEXT/ASS
Codec ID/Info                            : Advanced Sub Station Alpha
Compression mode                         : Lossless
Title                                    : Sub. Eng. Forced
Language                                 : English
Default                                  : No
Forced                                   : No
DURATION                                 : 01:44:48.448000000
NUMBER_OF_FRAMES                         : 57
NUMBER_OF_BYTES                          : 1004
_STATISTICS_WRITING_APP                  : mkvmerge v9.4.0 ('Knurl') 32bit
_STATISTICS_WRITING_DATE_UTC             : 2016-09-07 13:11:00
_STATISTICS_TAGS                         : BPS DURATION NUMBER_OF_FRAMES NUMBER_OF_BYTES

Text #4
ID                                       : 7
Format                                   : ASS
Codec ID                                 : S_TEXT/ASS
Codec ID/Info                            : Advanced Sub Station Alpha
Compression mode                         : Lossless
Title                                    : Sub. Eng.
Language                                 : English
Default                                  : No
Forced                                   : No
DURATION                                 : 02:25:59.710000000
NUMBER_OF_FRAMES                         : 1865
NUMBER_OF_BYTES                          : 53411
_STATISTICS_WRITING_APP                  : mkvmerge v9.4.0 ('Knurl') 32bit
_STATISTICS_WRITING_DATE_UTC             : 2016-09-07 13:11:00
_STATISTICS_TAGS                         : BPS DURATION NUMBER_OF_FRAMES NUMBER_OF_BYTES

Menu
00:00:00.000                             : :00:00:00.000
00:09:01.958                             : :00:09:01.958
00:13:04.993                             : :00:13:04.993
00:21:03.345                             : :00:21:03.345
00:27:53.380                             : :00:27:53.380
00:31:57.290                             : :00:31:57.290
00:35:08.398                             : :00:35:08.398
00:42:58.451                             : :00:42:58.451
00:52:04.621                             : :00:52:04.621
01:05:39.102                             : :01:05:39.102
01:16:41.639                             : :01:16:41.639
01:22:28.777                             : :01:22:28.777
01:29:29.489                             : :01:29:29.489
01:34:09.769                             : :01:34:09.769
01:45:38.582                             : :01:45:38.582
01:55:54.322                             : :01:55:54.322
02:02:35.056                             : :02:02:35.056
02:12:14.176                             : :02:12:14.176
02:18:29.384                             : :02:18:29.384




[/spoiler]

[/center]

Info: Per scaricare devi usare un client come uTorrent o Transmission
AnnounceURL
udp://tracker.leechers-paradise.org:6969/announce
Hash 1e5502d81822a1c14b1b8fbffeda046e49a9468c
Peers seeds: 430 , leech: 247
Size 3.51 GB
Completato 4530x
Aggiunto 09.09.16 - 13:09:15
Uploader   robbyrs
Votazione (Voti: 2)


Condividi questo bittorrent:


html/blog:


bbcode/forum:




Aggiungi Commento
Ultimi commenti
avatar     
niente da fare neanche con mkvtoolnix funziona continuo ad a avere lo stesso problema sia con questo film che con altri che hanno lo stesso encoding e muxing
14/09 17.07
avatar     
ok proverò solo era più facile aver scaricabile tutto già pronto senza dover far mille passaggi
14/09 11.05
  
AUDIO VIDEO 10/10 per un file cosi piccolo , complimenti al creatore
14/09 07.20
Tutti commenti (6)