Loading...
 * Dettagli Torrent   globale  | Commenti (12) 


- Captain America: Civil War (2016 Ita/Eng) EXTRA [1080p] [iCV-MIRCrew] -


Download via torrent:
Categoria bittorrent BDRip
Descrizione
[center]








Captain America: Civil War (2016)




Titolo originale: Captain America: Civil War
Nazionalità: USA
Anno: 2016
Genere: azione, fantascienza
Regia: Anthony e Joe Russo
Durata: 147 min




Il nuovo film Marvel Captain America 3 Civil War vede Steve Rogers al comando della nuova squadra degli Avengers, intenti a proseguire la loro lotta per salvaguardare l'umanità. Ma, quando un altro incidente internazionale in cui sono coinvolti gli Avengers provoca dei danni collaterali, le pressioni politiche chiedono a gran voce l'installazione di un sistema di responsabilità, presieduto da un consiglio d'amministrazione che sorvegli e diriga il team. Questa nuova dinamica divide gli Avengers in due fazioni: una è capeggiata da Steve Rogers, il quale desidera che gli Avengers rimangano liberi dalle interferenze governative, mentre l'altra è guidata da Tony Stark, che ha sorprendentemente deciso di sostenere il sistema di vigilanza istituito dal governo.











Code


General
Unique ID                   : 248314563039821961497203493051673862360 (0xBACFA52FAA9D55FEA6B8B5B6500BE0D
Complete name               : D:\Film\Captain America - Civil War (2016) - 1080p EXTRA iCV-MIRCrew\Captain America - Civil War (2016) - 1080p iCV-MIRCrew.mkv
Format                      : Matroska
Format version              : Version 4 / Version 2
File size                   : 6.20 GiB
Duration                    : 2h 27mn
Overall bit rate            : 6 010 Kbps
Movie name                  : Captain America - Civil War (2016) - 1080p iCV-MIRCrew
Encoded date                : UTC 2016-09-08 07:53:43
Writing application         : mkvmerge v9.0.1 ('Obstacles') 64bit
Writing library             : libebml v1.3.3 + libmatroska v1.4.4
Cover                       : Yes
Attachments                 : cover.png / small_cover.png

Video
ID                          : 1
Format                      : AVC
Format/Info                 : Advanced Video Codec
Format profile              : [email protected]
Format settings, CABAC      : Yes
Format settings, ReFrames   : 5 frames
Codec ID                    : V_MPEG4/ISO/AVC
Duration                    : 2h 27mn
Bit rate                    : 4 437 Kbps
Width                       : 1 920 pixels
Height                      : 804 pixels
Display aspect ratio        : 2.40:1
Frame rate mode             : Constant
Frame rate                  : 23.976 (24000/1001) fps
Color space                 : YUV
Chroma subsampling          : 4:2:0
Bit depth                   : 8 bits
Scan type                   : Progressive
Bits/(Pixel*Frame)          : 0.120
Stream size                 : 4.58 GiB (74%)
Writing library             : x264 core 142 r2479 dd79a61
Encoding settings           : cabac=1 / ref=5 / deblock=1:0:0 / analyse=0x3:0x113 / me=umh / subme=8 / psy=1 / psy_rd=1.00:0.00 / mixed_ref=1 / me_range=16 / chroma_me=1 / trellis=1 / 8x8dct=1 / cqm=0 / deadzone=21,11 / fast_pskip=1 / chroma_qp_offset=-2 / threads=12 / lookahead_threads=2 / sliced_threads=0 / nr=0 / decimate=1 / interlaced=0 / bluray_compat=0 / constrained_intra=0 / bframes=3 / b_pyramid=2 / b_adapt=2 / b_bias=0 / direct=3 / weightb=1 / open_gop=0 / weightp=2 / keyint=240 / keyint_min=24 / scenecut=40 / intra_refresh=0 / rc_lookahead=50 / rc=crf / mbtree=1 / crf=19.0 / qcomp=0.60 / qpmin=0 / qpmax=69 / qpstep=4 / vbv_maxrate=62500 / vbv_bufsize=78125 / crf_max=0.0 / nal_hrd=none / filler=0 / ip_ratio=1.40 / aq=1:1.00
Default                     : Yes
Forced                      : No
Color range                 : Limited
Color primaries             : BT.709
Transfer characteristics    : BT.709
Matrix coefficients         : BT.709

Audio #1
ID                          : 2
Format                      : AC-3
Format/Info                 : Audio Coding 3
Mode extension              : CM (complete main)
Format settings, Endianness : Big
Codec ID                    : A_AC3
Duration                    : 2h 27mn
Bit rate mode               : Constant
Bit rate                    : 640 Kbps
Channel(s)                  : 6 channels
Channel positions           : Front: L C R, Side: L R, LFE
Sampling rate               : 48.0 KHz
Frame rate                  : 31.250 fps (1536 spf)
Compression mode            : Lossy
Delay relative to video     : -83ms
Stream size                 : 676 MiB (11%)
Language                    : Italian
Default                     : Yes
Forced                      : No

Audio #2
ID                          : 3
Format                      : AC-3
Format/Info                 : Audio Coding 3
Mode extension              : CM (complete main)
Format settings, Endianness : Big
Codec ID                    : A_AC3
Duration                    : 2h 27mn
Bit rate mode               : Constant
Bit rate                    : 640 Kbps
Channel(s)                  : 6 channels
Channel positions           : Front: L C R, Side: L R, LFE
Sampling rate               : 48.0 KHz
Frame rate                  : 31.250 fps (1536 spf)
Compression mode            : Lossy
Delay relative to video     : -83ms
Stream size                 : 676 MiB (11%)
Language                    : English
Default                     : No
Forced                      : No

Audio #3
ID                          : 4
Format                      : AC-3
Format/Info                 : Audio Coding 3
Mode extension              : CM (complete main)
Format settings, Endianness : Big
Codec ID                    : A_AC3
Duration                    : 2h 27mn
Bit rate mode               : Constant
Bit rate                    : 192 Kbps
Channel(s)                  : 2 channels
Channel positions           : Front: L R
Sampling rate               : 48.0 KHz
Frame rate                  : 31.250 fps (1536 spf)
Compression mode            : Lossy
Delay relative to video     : -83ms
Stream size                 : 203 MiB (3%)
Title                       : COMMENTARY ANTHONY & JOE RUSSO E CHRISTOPHER MARKUS & STEPHEN MCFEELY
Language                    : English
Default                     : No
Forced                      : No

Text #1
ID                          : 5
Format                      : PGS
Muxing mode                 : zlib
Codec ID                    : S_HDMV/PGS
Codec ID/Info               : Picture based subtitle format used on BDs/HD-DVDs
Duration                    : 2h 26mn
Bit rate                    : 127 bps
Count of elements           : 138
Stream size                 : 137 KiB (0%)
Title                       : FORCED
Language                    : Italian
Default                     : Yes
Forced                      : Yes

Text #2
ID                          : 6
Format                      : PGS
Muxing mode                 : zlib
Codec ID                    : S_HDMV/PGS
Codec ID/Info               : Picture based subtitle format used on BDs/HD-DVDs
Duration                    : 1h 44mn
Bit rate                    : 143 bps
Count of elements           : 118
Stream size                 : 110 KiB (0%)
Title                       : FORCED
Language                    : English
Default                     : No
Forced                      : No

Text #3
ID                          : 7
Format                      : PGS
Muxing mode                 : zlib
Codec ID                    : S_HDMV/PGS
Codec ID/Info               : Picture based subtitle format used on BDs/HD-DVDs
Duration                    : 2h 26mn
Bit rate                    : 147 bps
Count of elements           : 138
Stream size                 : 158 KiB (0%)
Title                       : FORCED
Language                    : Spanish
Default                     : No
Forced                      : No

Text #4
ID                          : 8
Format                      : PGS
Muxing mode                 : zlib
Codec ID                    : S_HDMV/PGS
Codec ID/Info               : Picture based subtitle format used on BDs/HD-DVDs
Duration                    : 2h 26mn
Bit rate                    : 9 231 bps
Count of elements           : 3442
Stream size                 : 9.66 MiB (0%)
Language                    : Italian
Default                     : No
Forced                      : No

Text #5
ID                          : 9
Format                      : PGS
Muxing mode                 : zlib
Codec ID                    : S_HDMV/PGS
Codec ID/Info               : Picture based subtitle format used on BDs/HD-DVDs
Duration                    : 2h 26mn
Bit rate                    : 9 565 bps
Count of elements           : 3418
Stream size                 : 10.0 MiB (0%)
Language                    : Portuguese
Default                     : No
Forced                      : No

Text #6
ID                          : 10
Format                      : PGS
Muxing mode                 : zlib
Codec ID                    : S_HDMV/PGS
Codec ID/Info               : Picture based subtitle format used on BDs/HD-DVDs
Duration                    : 2h 26mn
Bit rate                    : 9 161 bps
Count of elements           : 3380
Stream size                 : 9.59 MiB (0%)
Language                    : Spanish
Default                     : No
Forced                      : No

Text #7
ID                          : 11
Format                      : PGS
Muxing mode                 : zlib
Codec ID                    : S_HDMV/PGS
Codec ID/Info               : Picture based subtitle format used on BDs/HD-DVDs
Duration                    : 2h 26mn
Bit rate                    : 10.0 Kbps
Count of elements           : 3394
Stream size                 : 10.5 MiB (0%)
Language                    : Greek
Default                     : No
Forced                      : No

Text #8
ID                          : 12
Format                      : PGS
Muxing mode                 : zlib
Codec ID                    : S_HDMV/PGS
Codec ID/Info               : Picture based subtitle format used on BDs/HD-DVDs
Duration                    : 2h 26mn
Bit rate                    : 11.4 Kbps
Count of elements           : 4210
Stream size                 : 12.0 MiB (0%)
Title                       : HEARING IMPAIRED
Language                    : English
Default                     : No
Forced                      : No

Text #9
ID                          : 13
Format                      : PGS
Muxing mode                 : zlib
Codec ID                    : S_HDMV/PGS
Codec ID/Info               : Picture based subtitle format used on BDs/HD-DVDs
Duration                    : 2h 27mn
Bit rate                    : 23.2 Kbps
Count of elements           : 6446
Stream size                 : 24.4 MiB (0%)
Title                       : COMMENTARY ANTHONY & JOE RUSSO E CHRISTOPHER MARKUS & STEPHEN MCFEELY
Language                    : Italian
Default                     : No
Forced                      : No

Text #10
ID                          : 14
Format                      : PGS
Muxing mode                 : zlib
Codec ID                    : S_HDMV/PGS
Codec ID/Info               : Picture based subtitle format used on BDs/HD-DVDs
Duration                    : 2h 27mn
Bit rate                    : 24.0 Kbps
Count of elements           : 6431
Stream size                 : 25.3 MiB (0%)
Title                       : COMMENTARY ANTHONY & JOE RUSSO E CHRISTOPHER MARKUS & STEPHEN MCFEELY
Language                    : Spanish
Default                     : No
Forced                      : No

Menu
00:00:00.000                : en:Chapter 1
00:09:01.958                : en:Chapter 2
00:13:04.992                : en:Chapter 3
00:21:03.345                : en:Chapter 4
00:27:53.380                : en:Chapter 5
00:31:57.290                : en:Chapter 6
00:35:08.397                : en:Chapter 7
00:42:58.450                : en:Chapter 8
00:52:04.621                : en:Chapter 9
01:05:39.101                : en:Chapter 10
01:16:41.638                : en:Chapter 11
01:22:28.777                : en:Chapter 12
01:29:29.489                : en:Chapter 13
01:34:09.769                : en:Chapter 14
01:45:38.582                : en:Chapter 15
01:55:54.322                : en:Chapter 16
02:02:35.056                : en:Chapter 17
02:12:14.176                : en:Chapter 18
02:18:29.384                : en:Chapter 19




SEED 24-7





In questa versione sono compresi gli extra:

[/center]
1 - Featurette
1 - Uniti di vince divisi si perde - Il dietro le quinte di Captain America - Civil War
Parte 1 22.25
Parte 2 23.18
2 - Captain America - Road to Civil War 4.11
3 - Iron Man - Road to Civil War 4.27
4 - Apri la mente - Marvel s Doctor Strange - Anteprima Esclusiva 4.02
2 - Scene eliminate ed estese 7.52
3 - Gag Reel 2.52
Info: Per scaricare devi usare un client come uTorrent o Transmission
AnnounceURL
udp://tracker.coppersurfer.tk:6969/announce
Hash e6d8d008f1931b7ce3358dd10f0026e8324642bd
Peers seeds: 144 , leech: 258
Size 9.77 GB
Completato 1832x
Aggiunto 08.09.16 - 19:09:16
Uploader   nicola939
Votazione (Voti: 2)


Condividi questo bittorrent:


html/blog:


bbcode/forum:




Aggiungi Commento
Ultimi commenti
 nicola939nicola939   
si
28/09 20.20
  
Ma questa versione è la stessa di quella presente nel Blu-Ray distribuito ufficialmente in Italia? p.s. quello uscito in Italia è uscito l'altro ieri, il 21 settembre
23/09 14.16
 nicola939nicola939   
Pesa 9 gb perché è FILM + EXTRA come da bluray, in 9 gb hai quello che trovi in 47 gb di bd. Per il resto, ci sono seed a valanga, la mia banda è illimitata, ma ormai non serve più il mio seed, la release è bella che partita e si regge sulle sue gambe.
13/09 16.35
Tutti commenti (12)