Loading...
 * Dettagli Torrent   globale  | Commenti (0) 


- Guardiani della Galassia (2014) BDRip 720p HEVC ITA ENG AC3 ITA ENG Sub PirateMKV.mkv -


Download via torrent:
Categoria bittorrent BDRip
Descrizione
[align=center]

[SIZE=14]Guardiani della Galassia[/SIZE]





Titolo: Guardians of the Galaxy
Nazione: USA, UK
Anno: 2014
Genere: Action, Adventure, Sci-Fi
Durata: 121 min
Regia: James Gunn
Cast: Chris Pratt, Zoe Saldana, Dave Bautista, Vin Diesel



Il giorno in cui sua madre muore, il piccolo Peter Quill viene misteriosamente risucchiato nello spazio. Yondu, un umanoide dalla pelle blu, non lo consegna a chi di dovere e lo alleva insieme alla sua squadra di fuorilegge noti come Ravager. Ventisei anni dopo, nel 2014, Peter è un audace avventuriero dello spazio che si fa chiamare Spacelord e va a zonzo su una nave lercia, dove ascolta sempre e soltanto la musicassetta che aveva con sé quel fatidico giorno del 1988. Entrato per caso in possesso di una sfera misteriosa, Quill scopre che il feroce Ronan è determinato ad averla per distruggere il pianeta Xandar e molto probabilmente non solo quello. Per sventare il piano apocalittico di Ronan, Peter si allea quindi con una squadra di ricercati come lui: il procione Rocket, mago della meccanica, il suo amico Groot, una creatura dalle sembianze d'albero, la bella e dannata Gamora e il grosso Drax, assetato di vendetta.








[spoiler]

General
Unique ID : 223971280036823889192494587078315633941 (0xA87F4CAB69E9AEF59C1189C8A5206D15)
Complete name : D:\Downloads\guardians galaxy\Guardiani della Galassia (2014) BDRip 720p HEVC ITA ENG AC3 ITA ENG Sub PirateMKV.mkv
Format : Matroska
Format version : Version 4 / Version 2
File size : 3.45 GiB
Duration : 2h 0mn
Overall bit rate : 4 082 Kbps
Movie name : Guardiani della Galassia (2014) IMAX - PirateMKV
Encoded date : UTC 2015-07-20 06:20:46
Writing application : mkvmerge v7.9.0 ('Birds') 64bit
Writing library : libebml v1.3.1 libmatroska v1.4.2

Video
ID : 1
Format : HEVC
Format/Info : High Efficiency Video Coding
Format profile : [email protected]@Main
Codec ID : V_MPEGH/ISO/HEVC
Duration : 2h 0mn
Bit rate : 2 799 Kbps
Width : 1 280 pixels
Height : 720 pixels
Display aspect ratio : 16:9
Frame rate mode : Constant
Frame rate : 23.976 (24000/1001) fps
Color space : YUV
Chroma subsampling : 4:2:0
Bit depth : 8 bits
Bits/(Pixel*Frame) : 0.127
Stream size : 2.36 GiB (69%)
Writing library : x265 1.7 357-b2ba7df1fc69:[Windows][GCC 4.8.2][64 bit] 8bit
Encoding settings : wpp / ctu=64 / min-cu-size=8 / max-tu-size=32 / tu-intra-depth=3 / tu-inter-depth=3 / me=2 / subme=4 / merange=57 / no-rect / no-amp / max-merge=3 / temporal-mvp / early-skip / rdpenalty=0 / no-tskip / no-tskip-fast / strong-intra-smoothing / no-lossless / no-cu-lossless / no-constrained-intra / fast-intra / open-gop / no-temporal-layers / interlace=0 / keyint=250 / min-keyint=23 / scenecut=40 / rc-lookahead=40 / lookahead-slices=0 / bframes=8 / bframe-bias=0 / b-adapt=2 / ref=5 / limit-refs=0 / weightp / weightb / aq-mode=1 / aq-strength=2.00 / cbqpoffs=0 / crqpoffs=0 / rd=4 / psy-rd=1.00 / rdoq-level=0 / psy-rdoq=0.00 / signhide / deblock=-1:-1 / sao / no-sao-non-deblock / b-pyramid / no-cutree / rc=crf / crf=19.0 / qcomp=0.60 / qpmin=0 / qpmax=51 / qpstep=4 / ipratio=1.40 / pbratio=1.30
Default : Yes
Forced : No
Color range : Limited
Matrix coefficients : BT.709

Audio #1
ID : 2
Format : AC-3
Format/Info : Audio Coding 3
Mode extension : CM (complete main)
Format settings, Endianness : Big
Codec ID : A_AC3
Duration : 2h 0mn
Bit rate mode : Constant
Bit rate : 640 Kbps
Channel(s) : 6 channels
Channel positions : Front: L C R, Side: L R, LFE
Sampling rate : 48.0 KHz
Frame rate : 31.250 fps (1536 spf)
Compression mode : Lossy
Stream size : 553 MiB (16%)
Title : AC3 5.1
Language : Italian
Default : Yes
Forced : No

Audio #2
ID : 3
Format : AC-3
Format/Info : Audio Coding 3
Mode extension : CM (complete main)
Format settings, Endianness : Big
Codec ID : A_AC3
Duration : 2h 0mn
Bit rate mode : Constant
Bit rate : 640 Kbps
Channel(s) : 6 channels
Channel positions : Front: L C R, Side: L R, LFE
Sampling rate : 48.0 KHz
Frame rate : 31.250 fps (1536 spf)
Compression mode : Lossy
Stream size : 553 MiB (16%)
Title : AC3 5.1
Language : English
Default : No
Forced : No

Text #1
ID : 4
Format : UTF-8
Codec ID : S_TEXT/UTF8
Codec ID/Info : UTF-8 Plain Text
Duration : 1h 53mn
Bit rate : 0 bps
Count of elements : 12
Stream size : 318 Bytes (0%)
Title : Forced
Language : Italian
Default : Yes
Forced : Yes

Text #2
ID : 5
Format : UTF-8
Codec ID : S_TEXT/UTF8
Codec ID/Info : UTF-8 Plain Text
Duration : 2h 0mn
Bit rate : 49 bps
Count of elements : 1426
Stream size : 44.0 KiB (0%)
Title : Normal
Language : Italian
Default : No
Forced : No

Text #3
ID : 6
Format : UTF-8
Codec ID : S_TEXT/UTF8
Codec ID/Info : UTF-8 Plain Text
Duration : 2h 0mn
Bit rate : 53 bps
Count of elements : 1667
Stream size : 46.9 KiB (0%)
Title : SDH
Language : English
Default : No
Forced : No

Menu
00:00:00.000 : enrologue
00:04:05.703 : en:Morag
00:11:21.806 : en:Ronan The Accuser
00:15:21.712 : en:A Man Of Honor
00:20:54.419 : en:The Kyln
00:27:11.212 : en:Crimes Against The Galaxy
00:33:58.828 : en:Escaping The Kyln
00:44:28.290 : en:Knowhere
00:50:53.008 : en:I Do Not Dance
00:55:17.564 : en:The Collector
00:59:45.206 : en:Facing Off With Ronan
01:06:06.921 : en:Something Incredibly Heroic
01:14:46.023 : en:12 Percent Of A Plan
01:22:20.644 : en:The Fleet Approaches
01:26:29.726 : en:Inside The Dark Aster
01:30:23.876 : enestroying Xandar
01:35:58.377 : enrotecting The Guardians
01:40:46.749 : en:Guardians Of The Galaxy
01:47:35.365 : en:Guardians Pardoned
01:53:16.623 : en:End Credits
02:00:10.828 : en:End Tag
[/spoiler]



Orario di seed e Banda disponibile: Sempre Attivo - 1MB

Si Ringrazia PirateMKV[/align]
Info: Per scaricare devi usare un client come uTorrent o Transmission
AnnounceURL
http://tracker.tntvillage.scambioetico.org:2710/announce
Hash f6a85e49b0c2b93d1d6e73a767a0d169790bf14d
Peers seeds: 59 , leech: 30
Size 3.45 GB
Completato 608x
Aggiunto 28.08.16 - 00:08:30
Uploader   BOOMTNT
Votazione (Voti: 0)


Condividi questo bittorrent:


html/blog:


bbcode/forum:




Aggiungi Commento