Loading...
 * Dettagli Torrent   globale  | Commenti (0) 


- La Fuga di Logan (Logan s Run 1976) - BDmux 720p x264 - Ita Eng AC3 - Multisub - Orgazmo -


Download via torrent:
Categoria bittorrent BDRip
Descrizione
La fuga di Logan (1976)



Titolo originale » Logan's Run
Nazionalità » USA
Anno » 1976
Durata » 119'
Genere » Fantascienza
Regia » Michael Anderson

Cast:
Michael York, Richard Jordan, Jenny Agutter, Roscoe Lee Browne,
Farrah Fawcett, Michael Anderson, Peter Ustinov.


Trama

È l'anno 2274 e i sopravvissuti a una guerra nucleare globale vivono in metropoli sotterranee dov'è stata istituita una società per controllare il numero di abitanti. Ogni cittadino, all'età dei trent'anni, è costretto a "rigenerarsi" tramite una cerimonia al termine della quale viene ucciso. Alle soglie dei suoi trent'anni, un poliziotto addetto alla soppressione di coloro che vogliono sottrarsi al rito decide di scappare e per farlo chiede alla sua compagna di metterlo in contatto con le forze della resistenza.

Il film presentato è la versione integrale che ripropone alcune scene tagliate dall'edizione italiana.
Queste sequenze sono presentate in INGLESE CON SOTTOTITOLI IN ITALIANO.


Screenshoots




Report del file

General
Unique ID: 7835643274386648444396633227709596533 (0x5E5170A57BE28CC3626FA2D5C2F4375)
Complete name: La Fuga di Logan (Logan s Run 1976) - BDmux 720p x264 - Ita Eng AC3 - Multisub - Orgazmo.mkv
Format: Matroska
Format version: Version 4 / Version 2
File size: 4.67 GiB
Duration: 1h 58mn
Overall bit rate mode: Variable
Overall bit rate: 5 644 Kbps
Movie name: La fuga di Logan (Michael Anderson, 1976) - Orgazmo
Encoded date: UTC 2015-10-07 11:56:51
Writing application: mkvmerge v6.2.0 ('Promised Land') built on Apr 28 2013 18:50:30
Writing library: libebml v1.3.0 + libmatroska v1.4.0

Video
ID: 1
Format: AVC
Format/Info: Advanced Video Codec
Format profile: [email protected]
Format settings, CABAC: Yes
Format settings, ReFrames: 4 frames
Codec ID: V_MPEG4/ISO/AVC
Duration: 1h 58mn
Bit rate mode: Variable
Bit rate: 5 000 Kbps
Maximum bit rate: 24.0 Mbps
Width: 1 280 pixels
Height: 544 pixels
Display aspect ratio: 2.35:1
Original display aspect ratio: 2.35:1
Frame rate mode: Constant
Frame rate: 23.976 fps
Color space: YUV
Chroma subsampling: 4:2:0
Bit depth: 8 bits
Scan type: Progressive
Bits/(Pixel*Frame): 0.299
Stream size: 4.05 GiB (87%)
Title: La fuga di Logan (Michael Anderson, 1976)
Writing library: x264 core 135 r2345
Encoding settings: cabac=1 / ref=4 / deblock=1:-1:-1 / analyse=0x3:0x133 / me=hex / subme=6 / psy=1 / psy_rd=1.00:0.10 /
mixed_ref=0 / me_range=16 / chroma_me=1 / trellis=1 / 8x8dct=1 / cqm=0 / deadzone=21,11 / fast_pskip=1 / chroma_qp_offset=-3 /
threads=12 / lookahead_threads=2 / sliced_threads=0 / nr=0 / decimate=1 / interlaced=0 / bluray_compat=1 / constrained_intra=0 /
bframes=3 / b_pyramid=0 / b_adapt=2 / b_bias=0 / direct=3 / weightb=1 / open_gop=0 / weightp=1 / keyint=230 / keyint_min=1 /
scenecut=40 / intra_refresh=0 / rc_lookahead=30 / rc=2pass / mbtree=1 / bitrate=5000 / ratetol=1.0 / qcomp=0.60 / qpmin=10 /
qpmax=69 / qpstep=4 / cplxblur=20.0 / qblur=0.5 / vbv_maxrate=24000 / vbv_bufsize=24000 / nal_hrd=vbr / ip_ratio=1.40 / aq=1:1.00
Language: English
Default: Yes
Forced: No

Audio #1
ID: 2
Format: AC-3
Format/Info: Audio Coding 3
Mode extension: CM (complete main)
Format settings, Endianness: Big
Codec ID: A_AC3
Duration: 1h 58mn
Bit rate mode: Constant
Bit rate: 192 Kbps
Channel count: 2 channels
Channel positions: Front: L R
Sampling rate: 44.1 KHz
Bit depth: 16 bits
Compression mode: Lossy
Stream size: 163 MiB (3%)
Title: Italiano AC3 2.0 192Kbps
Language: Italian
Default: Yes
Forced: No

Audio #2
ID: 3
Format: AC-3
Format/Info: Audio Coding 3
Mode extension: CM (complete main)
Format settings, Endianness: Big
Codec ID: A_AC3
Duration: 1h 58mn
Bit rate mode: Constant
Bit rate: 448 Kbps
Channel count: 6 channels
Channel positions: Front: L C R, Side: L R, LFE
Sampling rate: 48.0 KHz
Bit depth: 16 bits
Compression mode: Lossy
Stream size: 380 MiB (8%)
Title: English AC3 5.1 448Kbps
Language: English
Default: No
Forced: No

Text #1
ID: 4
Format: UTF-8
Codec ID: S_TEXT/UTF8
Codec ID/Info: UTF-8 Plain Text
Title: Italiano (Forced)
Language: Italian
Default: Yes
Forced: Yes

Text #2
ID: 5
Format: UTF-8
Codec ID: S_TEXT/UTF8
Codec ID/Info: UTF-8 Plain Text
Title: Italiano
Language: Italian
Default: No
Forced: No

Text #3
ID: 6
Format: UTF-8
Codec ID: S_TEXT/UTF8
Codec ID/Info: UTF-8 Plain Text
Title: English
Language: English
Default: No
Forced: No

Text #4
ID: 7
Format: UTF-8
Codec ID: S_TEXT/UTF8
Codec ID/Info: UTF-8 Plain Text
Title: Français
Language: French
Default: No
Forced: No

Text #5
ID: 8
Format: UTF-8
Codec ID: S_TEXT/UTF8
Codec ID/Info: UTF-8 Plain Text
Title: Deutsch
Language: German
Default: No
Forced: No

Text #6
ID: 9
Format: UTF-8
Codec ID: S_TEXT/UTF8
Codec ID/Info: UTF-8 Plain Text
Title: Español
Language: Spanish
Default: No
Forced: No

Text #7
ID: 10
Format: UTF-8
Codec ID: S_TEXT/UTF8
Codec ID/Info: UTF-8 Plain Text
Title: Português (Brazilian)
Language: Portuguese
Default: No
Forced: No

Text #8
ID: 11
Format: UTF-8
Codec ID: S_TEXT/UTF8
Codec ID/Info: UTF-8 Plain Text
Title: Nederlands
Language: Dutch
Default: No
Forced: No

Text #9
ID: 12
Format: UTF-8
Codec ID: S_TEXT/UTF8
Codec ID/Info: UTF-8 Plain Text
Title: Svenska
Language: Swedish
Default: No
Forced: No

Text #10
ID: 13
Format: UTF-8
Codec ID: S_TEXT/UTF8
Codec ID/Info: UTF-8 Plain Text
Title: ?eština
Language: Czech
Default: No
Forced: No



Info: Per scaricare devi usare un client come uTorrent o Transmission
AnnounceURL
udp://tracker.tntvillage.scambioetico.org:2710/announce
Hash 0e71c1da83a4a578db46415894d2a356dfc7c33e
Peers seeds: 3 , leech: 1
Size 4.67 GB
Completato 912x
Aggiunto 08.10.15 - 14:10:38
Uploader   Orgazmo
Votazione (Voti: 0)


Condividi questo bittorrent:


html/blog:


bbcode/forum:




Aggiungi Commento