Loading...
 * Dettagli Torrent   globale  | Commenti (0) 


- Alice nel Paese delle Meraviglie (1999), [Mux - H264 - Ita Eng Ac3 - MultiSub] TNTvillage by nicola9 -


Download via torrent:
Categoria bittorrent BDRip
Descrizione
[center]

http://forum.tntvillage.scambioetico.org/index.php?showtopic=465966




Alice nel Paese delle Meraviglie (1999)





Titolo originale: Alice in Wonderland
Nazionalit?: USA, Regno Unito
Anno: 1999
Genere: Fantasy, Avventura
Regia: Nick Willing
Durata: 128 min




Tina Majorino: Alice
Miranda Richardson: Regina di cuori
Martin Short: Cappellaio Matto
Simon Russell Beale: Il Re di Cuori
Whoopi Goldberg: Stregatto
Robbie Coltrane: Pancopinco
George Wendt: Pincopanco
Gene Wilder: Finta Tartaruga
Heathcote Williams: Mr Eaglet
Christopher Lloyd: Cavaliere Bianco
Peter Ustinov: Tricheco
Ben Kingsley: Brucaliffo
Elizabeth Spriggs: Duchessa
Pete Postlethwaite: Carpentiere
Sheila Hancock: cuoca




Alice deve cantare di fronte a degli ospiti e ai suoi genitori, ma non sentendosi pronta cerca rifugio ai margini del bosco. Trascorso qualche tempo, pare che questi si sia improvvisamente fermato. Un coniglio bianco appare e scompare in un buco posto alla base di un tronco d'albero. Alice segue il Coniglio Bianco, finendo cos? nel Paese delle Meraviglie.
Qui incontra diverse persone talvolta bizzarre che ricordano vagamente alcuni degli ospiti dei suoi genitori. Infine, Alice viene chiamata ad un'udienza in cui deve fare una dichiarazione.

[spoiler]Alice dimostra coraggio al processo, esprimendo il suo pensiero senza aver paura del giudizio degli altri. Superate quindi le sue paure non ha pi? bisogno del Paese delle Meraviglie e si risveglia sotto l'albero, laddove si era addormentata.
Allora Alice torna e canta con coraggio di fronte ai suoi genitori e ai loro ospiti, ma una canzone diversa (che ha imparato dalla finta tartaruga). Il pubblico ammira la sua interpretazione e la applaude. Infine Alice vede lo Stregatto, che le sorride tra il pubblico.
[/spoiler]




[IMG]http://i.imgur.com/wgmMTbs.png">[IMG]http://i.imgur.com/lThu3uA.png" alt="" onload="NcodeImageResizer.createOn(this);">
[IMG]http://i.imgur.com/wrA7dr0.png">[IMG]http://i.imgur.com/5eoKh70.png" alt="" onload="NcodeImageResizer.createOn(this);">




[spoiler]

General
Unique ID                   : 235649924223650204444524899012577786552 (0xB14886489D0187D98E15BC148E96FAB
Complete name               : E:\FILM PRONTI ALLA CONDIVISIONE\Alice nel paese delle meraviglie.mkv
Format                      : Matroska
Format version              : Version 4 / Version 2
File size                   : 2.17 GiB
Duration                    : 2h 8mn
Overall bit rate            : 2 428 Kbps
Encoded date                : UTC 2015-08-17 22:36:43
Writing application         : mkvmerge v8.1.0 ('Psychedelic Postcard') 64bit
Writing library             : libebml v1.3.1 + libmatroska v1.4.2
Attachements                : cover.png / small_cover.png
DURATION                    : 02:05:58.798000000
NUMBER_OF_FRAMES            : 1664
NUMBER_OF_BYTES             : 54453
_STATISTICS_WRITING_APP     : mkvmerge v8.1.0 ('Psychedelic Postcard') 64bit
_STATISTICS_WRITING_DATE_UT : 2015-08-17 22:36:43
_STATISTICS_TAGS            : BPS DURATION NUMBER_OF_FRAMES NUMBER_OF_BYTES

Video
ID                          : 1
Format                      : AVC
Format/Info                 : Advanced Video Codec
Format profile              : [email protected]
Format settings, CABAC      : Yes
Format settings, ReFrames   : 5 frames
Codec ID                    : V_MPEG4/ISO/AVC
Duration                    : 2h 8mn
Bit rate                    : 2 000 Kbps
Width                       : 700 pixels
Height                      : 570 pixels
Display aspect ratio        : 4:3
Original display aspect rat : 4:3
Frame rate mode             : Constant
Frame rate                  : 25.000 fps
Color space                 : YUV
Chroma subsampling          : 4:2:0
Bit depth                   : 8 bits
Scan type                   : Progressive
Bits/(Pixel*Frame)          : 0.201
Stream size                 : 1.76 GiB (81%)
Writing library             : x264 core 142 r2479 dd79a61
Encoding settings           : cabac=1 / ref=5 / deblock=1:0:0 / analyse=0x3:0x113 / me=umh / subme=8 / psy=1 / psy_rd=1.00:0.00 / mixed_ref=1 / me_range=16 / chroma_me=1 / trellis=1 / 8x8dct=1 / cqm=0 / deadzone=21,11 / fast_pskip=1 / chroma_qp_offset=-2 / threads=12 / lookahead_threads=2 / sliced_threads=0 / nr=0 / decimate=1 / interlaced=0 / bluray_compat=0 / constrained_intra=0 / bframes=3 / b_pyramid=2 / b_adapt=2 / b_bias=0 / direct=3 / weightb=1 / open_gop=0 / weightp=2 / keyint=250 / keyint_min=25 / scenecut=40 / intra_refresh=0 / rc_lookahead=50 / rc=2pass / mbtree=1 / bitrate=2000 / ratetol=1.0 / qcomp=0.60 / qpmin=0 / qpmax=69 / qpstep=4 / cplxblur=20.0 / qblur=0.5 / vbv_maxrate=62500 / vbv_bufsize=78125 / nal_hrd=none / filler=0 / ip_ratio=1.40 / aq=1:1.00
Language                    : Italian
Default                     : Yes
Forced                      : No
Color range                 : Limited
Color primaries             : BT.601 PAL
Transfer characteristics    : BT.709
Matrix coefficients         : BT.601
DURATION                    : 02:08:05.800000000
NUMBER_OF_FRAMES            : 192145
NUMBER_OF_BYTES             : 1921393561
_STATISTICS_WRITING_APP     : mkvmerge v8.1.0 ('Psychedelic Postcard') 64bit
_STATISTICS_WRITING_DATE_UT : 2015-08-17 22:36:43
_STATISTICS_TAGS            : BPS DURATION NUMBER_OF_FRAMES NUMBER_OF_BYTES

Audio #1
ID                          : 2
Format                      : AC-3
Format/Info                 : Audio Coding 3
Mode extension              : CM (complete main)
Format settings, Endianness : Big
Codec ID                    : A_AC3
Duration                    : 2h 8mn
Bit rate mode               : Constant
Bit rate                    : 192 Kbps
Channel(s)                  : 2 channels
Channel positions           : Front: L R
Sampling rate               : 48.0 KHz
Compression mode            : Lossy
Delay relative to video     : -80ms
Stream size                 : 176 MiB (8%)
Language                    : Italian
Default                     : Yes
Forced                      : No
DURATION                    : 02:08:05.856000000
NUMBER_OF_FRAMES            : 240183
NUMBER_OF_BYTES             : 215203968
_STATISTICS_WRITING_APP     : mkvmerge v8.1.0 ('Psychedelic Postcard') 64bit
_STATISTICS_WRITING_DATE_UT : 2015-08-17 22:36:43
_STATISTICS_TAGS            : BPS DURATION NUMBER_OF_FRAMES NUMBER_OF_BYTES

Audio #2
ID                          : 3
Format                      : AC-3
Format/Info                 : Audio Coding 3
Mode extension              : CM (complete main)
Format settings, Endianness : Big
Codec ID                    : A_AC3
Duration                    : 2h 8mn
Bit rate mode               : Constant
Bit rate                    : 224 Kbps
Channel(s)                  : 2 channels
Channel positions           : Front: L R
Sampling rate               : 48.0 KHz
Compression mode            : Lossy
Delay relative to video     : -5ms
Stream size                 : 205 MiB (9%)
Language                    : English
Default                     : No
Forced                      : No
DURATION                    : 02:06:28.509000000
NUMBER_OF_FRAMES            : 1056
NUMBER_OF_BYTES             : 2200217
_STATISTICS_WRITING_APP     : mkvmerge v8.1.0 ('Psychedelic Postcard') 64bit
_STATISTICS_WRITING_DATE_UT : 2015-08-17 22:36:43
_STATISTICS_TAGS            : BPS DURATION NUMBER_OF_FRAMES NUMBER_OF_BYTES

Text #1
ID                          : 4
Format                      : UTF-8
Codec ID                    : S_TEXT/UTF8
Codec ID/Info               : UTF-8 Plain Text
Language                    : English
Default                     : No
Forced                      : No
DURATION                    : 02:06:13.397000000
NUMBER_OF_FRAMES            : 980
NUMBER_OF_BYTES             : 2204663
_STATISTICS_WRITING_APP     : mkvmerge v8.1.0 ('Psychedelic Postcard') 64bit
_STATISTICS_WRITING_DATE_UT : 2015-08-17 22:36:43
_STATISTICS_TAGS            : BPS DURATION NUMBER_OF_FRAMES NUMBER_OF_BYTES

Text #2
ID                          : 5
Format                      : VobSub
Muxing mode                 : zlib
Codec ID                    : S_VOBSUB
Codec ID/Info               : Picture based subtitle format used on DVDs
Language                    : Swedish
Default                     : No
Forced                      : No
DURATION                    : 02:06:28.509000000
NUMBER_OF_FRAMES            : 1047
NUMBER_OF_BYTES             : 2254330
_STATISTICS_WRITING_APP     : mkvmerge v8.1.0 ('Psychedelic Postcard') 64bit
_STATISTICS_WRITING_DATE_UT : 2015-08-17 22:36:43
_STATISTICS_TAGS            : BPS DURATION NUMBER_OF_FRAMES NUMBER_OF_BYTES

Text #3
ID                          : 6
Format                      : VobSub
Muxing mode                 : zlib
Codec ID                    : S_VOBSUB
Codec ID/Info               : Picture based subtitle format used on DVDs
Language                    : Finnish
Default                     : No
Forced                      : No
DURATION                    : 02:06:28.509000000
NUMBER_OF_FRAMES            : 1057
NUMBER_OF_BYTES             : 2275800
_STATISTICS_WRITING_APP     : mkvmerge v8.1.0 ('Psychedelic Postcard') 64bit
_STATISTICS_WRITING_DATE_UT : 2015-08-17 22:36:43
_STATISTICS_TAGS            : BPS DURATION NUMBER_OF_FRAMES NUMBER_OF_BYTES

Text #4
ID                          : 7
Format                      : VobSub
Muxing mode                 : zlib
Codec ID                    : S_VOBSUB
Codec ID/Info               : Picture based subtitle format used on DVDs
Language                    : Danish
Default                     : No
Forced                      : No

Text #5
ID                          : 8
Format                      : VobSub
Muxing mode                 : zlib
Codec ID                    : S_VOBSUB
Codec ID/Info               : Picture based subtitle format used on DVDs
Language                    : Norwegian
Default                     : No
Forced                      : No

Menu
00:00:00.000                : :Chapter 1
00:02:25.720                : :Chapter 2
00:05:41.760                : :Chapter 3
00:08:16.720                : :Chapter 4
00:14:42.560                : :Chapter 5
00:21:46.360                : :Chapter 6
00:25:04.480                : :Chapter 7
00:30:46.640                : :Chapter 8
00:35:35.240                : :Chapter 9
00:39:06.880                : :Chapter 10
00:42:25.520                : :Chapter 11
00:44:55.800                : :Chapter 12
00:51:14.880                : :Chapter 13
00:57:42.800                : :Chapter 14
00:59:25.760                : :Chapter 15
01:03:19.760                : :Chapter 16
01:06:25.400                : :Chapter 17
01:10:58.440                : :Chapter 18
01:14:22.800                : :Chapter 19
01:19:11.920                : :Chapter 20
01:22:07.680                : :Chapter 21
01:26:01.680                : :Chapter 22
01:28:35.080                : :Chapter 23
01:34:27.640                : :Chapter 24
01:37:11.440                : :Chapter 25
01:39:37.040                : :Chapter 26
01:44:23.040                : :Chapter 27
01:49:16.320                : :Chapter 28
01:59:15.360                : :Chapter 29
02:00:41.160                : :Chapter 30
02:04:32.040                : :Chapter 31
02:06:35.800                : :Chapter 32


[/spoiler]

[/center]
Info: Per scaricare devi usare un client come uTorrent o Transmission
AnnounceURL
http://tracker.tntvillage.scambioetico.org:2710/announce
Hash b68c08aeb966f433a82b95175b85a4a8bc9fec1f
Peers seeds: 30 , leech: 9
Size 2.17 GB
Completato 364x
Aggiunto 21.08.15 - 09:08:46
Uploader   nicola939
Votazione (Voti: 0)


Condividi questo bittorrent:


html/blog:


bbcode/forum:




Aggiungi Commento