Loading...
 * Dettagli Torrent   globale  | .nfo   | Commenti (0) 


- Fast.And.Furious.7.2015.EXTENDED.ITALIAN.ENG.AC3.Subs.1080p.BluRay.x264-HRS -


Download via torrent:
Categoria bittorrent BDRip
Descrizione
DOWNLOAD CLICCA --->>>
attendi 5 secondi, poi clicca su AVANTI in alto a destra!
BANDA GARANTITA 100 Mbps per 48H





VERSIONE 1080p ULTRACOMPRESSA MA DI ALTISSIMA QUALITA'
E COMPATIBILE CON TUTTI I PLAYER E TV RECENTI
...:::HRS:::... ENCODE SOLO DA FULL BLURAY!!!


PRETENDETE LA MASSIMA QUALITA' VIDEO
PER I VOSTRI FILM PREFERITI!!!



Titolo originale Furious 7
Lingua originale inglese
Paese di produzione Stati Uniti d'America
Anno 2015
Durata 140 min
Colore colore
Audio sonoro
Rapporto 2,35:1
Genere azione, crimine, avventura, thriller
Regia James Wan
Soggetto Gary Scott Thompson (personaggi)
Sceneggiatura Chris Morgan
Produttore Vin Diesel, Michael Fottrell, Neal H. Moritz
Produttore esecutivo Thomas Tull, Samantha Vincent, F. Valentino Morales
Casa di produzione Original Film
One Race Films
Media Rights Capital
China Film Group
Distribuzione (Italia) Universal Pictures

Fast & Furious 7 (Furious 7) ? un film del 2015 diretto da James Wan. ? il settimo film della serie Fast and Furious ed ? interpretato da Vin Diesel, Paul Walker, Tyrese Gibson, Dwayne Johnson, Michelle Rodriguez, Jordana Brewster, Lucas Black e Jason Statham. ? inoltre il primo film della serie ambientato dopo le vicende di The Fast and the Furious: Tokyo Drift.

Il film segna l'ultima apparizione cinematografica dell'attore Paul Walker, deceduto il 30 novembre 2013, quando le riprese del film erano ancora in corso.


Dopo aver ferito gravemente Owen Shaw ed eliminato la sua squadra, Dominic Toretto, Brian O'Conner, e il resto dei membri della famiglia possono finalmente tornare negli Stati Uniti e vivere una vita normale. Dom tenta di aiutare Letty nel riguadagnare la sua memoria, mentre Brian, ormai diventato padre, inizia a prendere dimestichezza con la sua vita da genitore. Intanto a Londra, il fratello maggiore di Owen, Deckard Shaw, irrompe violentemente e fa una sanguinosa strage di poliziotti all'interno dell'ospedale in cui ? stato portato il fratello in coma, giurandogli che lo vendicher?, eliminando Dominic e tutta la sua famiglia...












General
Unique ID                                : 240158777583562371048121225504274662468 (0xB4ACE5EAE6C5741E860B1CED3EA24444)
Complete name                            : /root/Fast.And.Furious.7.2015.EXTENDED.ITA.ENG.AC3.Subs.1080p.BluRay.x264-HRS.mkv
Format                                   : Matroska
Format version                           : Version 4 / Version 2
File size                                : 4.09 GiB
Duration                                 : 2h 19mn
Overall bit rate                         : 4 181 Kbps
Movie name                               : Fast.And.Furious.7.2015.EXTENDED.ITA.ENG.AC3.Subs.1080p.BluRay.x264-HRS
Encoded date                             : UTC 2015-07-29T07:14:58Z
Writing application                      : mkvmerge v8.2.0 ('World of Adventure') 64bit
Writing library                          : Lavf55.12.0
ARTIST                                   : ...:::HRS:::...
DIRECTOR                                 : ...:::HRS:::...
DATE_RELEASED                            : 29.07.2015
DURATION                                 : 02:12:29.200000000
NUMBER_OF_FRAMES                         : 1673
NUMBER_OF_BYTES                          : 48726
_STATISTICS_WRITING_APP                  : mkvmerge v8.2.0 ('World of Adventure') 64bit
_STATISTICS_WRITING_DATE_UTC             : 2015-07-30 13:17:10
_STATISTICS_TAGS                         : BPS DURATION NUMBER_OF_FRAMES NUMBER_OF_BYTES

Video
ID                                       : 1
Format                                   : AVC
Format/Info                              : Advanced Video Codec
Format profile                           : [email protected]
Format settings, CABAC                   : Yes
Format settings, ReFrames                : 5 frames
Codec ID                                 : V_MPEG4/ISO/AVC
Duration                                 : 2h 19mn
Bit rate                                 : 2 900 Kbps
Width                                    : 1 920 pixels
Height                                   : 800 pixels
Display aspect ratio                     : 2.40:1
Frame rate mode                          : Constant
Frame rate                               : 23.976 fps
Color space                              : YUV
Chroma subsampling                       : 4:2:0
Bit depth                                : 8 bits
Scan type                                : Progressive
Bits/(Pixel*Frame)                       : 0.079
Stream size                              : 2.75 GiB (67%)
Title                                    : ...:::HRS:::...
Writing library                          : x264 core 142 r2431 a5831aa
Encoding settings                        : cabac=1 / ref=5 / deblock=1:-1:-1 / analyse=0x3:0x133 / me=umh / subme=10 / psy=1 / psy_rd=1,00:0,15 / mixed_ref=1 / me_range=96 / chroma_me=1 / trellis=2 / 8x8dct=1 / cqm=0 / deadzone=21,11 / fast_pskip=1 / chroma_qp_offset=-3 / threads=12 / lookahead_threads=2 / sliced_threads=0 / nr=0 / decimate=1 / interlaced=0 / bluray_compat=0 / constrained_intra=0 / bframes=8 / b_pyramid=2 / b_adapt=2 / b_bias=0 / direct=3 / weightb=1 / open_gop=0 / weightp=2 / keyint=240 / keyint_min=24 / scenecut=40 / intra_refresh=0 / rc_lookahead=60 / rc=2pass / mbtree=1 / bitrate=2900 / ratetol=1,0 / qcomp=0,75 / qpmin=0 / qpmax=69 / qpstep=4 / cplxblur=20,0 / qblur=0,5 / vbv_maxrate=62500 / vbv_bufsize=78125 / nal_hrd=none / filler=0 / ip_ratio=1,40 / aq=1:1,00
Language                                 : Italian
Default                                  : Yes
Forced                                   : No
Color primaries                          : BT.709
Transfer characteristics                 : BT.709
Matrix coefficients                      : BT.709
DURATION                                 : 02:19:54.887000000
NUMBER_OF_FRAMES                         : 201276
NUMBER_OF_BYTES                          : 3041796766
_STATISTICS_WRITING_APP                  : mkvmerge v8.2.0 ('World of Adventure') 64bit
_STATISTICS_WRITING_DATE_UTC             : 2015-07-30 13:17:10
_STATISTICS_TAGS                         : BPS DURATION NUMBER_OF_FRAMES NUMBER_OF_BYTES

Audio #1
ID                                       : 2
Format                                   : AC-3
Format/Info                              : Audio Coding 3
Mode extension                           : CM (complete main)
Format settings, Endianness              : Big
Codec ID                                 : A_AC3
Duration                                 : 2h 19mn
Bit rate mode                            : Constant
Bit rate                                 : 640 Kbps
Channel(s)                               : 6 channels
Channel positions                        : Front: L C R, Side: L R, LFE
Sampling rate                            : 48.0 KHz
Bit depth                                : 16 bits
Compression mode                         : Lossy
Delay relative to video                  : -5ms
Stream size                              : 640 MiB (15%)
Title                                    : ITA AC3 5.1 640 Kbps
Language                                 : Italian
Default                                  : Yes
Forced                                   : No
DURATION                                 : 02:19:54.912000000
NUMBER_OF_FRAMES                         : 262341
NUMBER_OF_BYTES                          : 671592960
_STATISTICS_WRITING_APP                  : mkvmerge v8.2.0 ('World of Adventure') 64bit
_STATISTICS_WRITING_DATE_UTC             : 2015-07-30 13:17:10
_STATISTICS_TAGS                         : BPS DURATION NUMBER_OF_FRAMES NUMBER_OF_BYTES

Audio #2
ID                                       : 3
Format                                   : AC-3
Format/Info                              : Audio Coding 3
Mode extension                           : CM (complete main)
Format settings, Endianness              : Big
Codec ID                                 : A_AC3
Duration                                 : 2h 19mn
Bit rate mode                            : Constant
Bit rate                                 : 640 Kbps
Channel(s)                               : 6 channels
Channel positions                        : Front: L C R, Side: L R, LFE
Sampling rate                            : 48.0 KHz
Bit depth                                : 16 bits
Compression mode                         : Lossy
Delay relative to video                  : -5ms
Stream size                              : 640 MiB (15%)
Title                                    : ENG AC3 5.1 640 Kbps
Language                                 : English
Default                                  : No
Forced                                   : No
DURATION                                 : 02:19:54.912000000
NUMBER_OF_FRAMES                         : 262341
NUMBER_OF_BYTES                          : 671592960
_STATISTICS_WRITING_APP                  : mkvmerge v8.2.0 ('World of Adventure') 64bit
_STATISTICS_WRITING_DATE_UTC             : 2015-07-30 13:17:10
_STATISTICS_TAGS                         : BPS DURATION NUMBER_OF_FRAMES NUMBER_OF_BYTES

Text #1
ID                                       : 4
Format                                   : UTF-8
Codec ID                                 : S_TEXT/UTF8
Codec ID/Info                            : UTF-8 Plain Text
Title                                    : SUB ITA FORCED
Language                                 : Italian
Default                                  : Yes
Forced                                   : Yes

Text #2
ID                                       : 5
Format                                   : UTF-8
Codec ID                                 : S_TEXT/UTF8
Codec ID/Info                            : UTF-8 Plain Text
Title                                    : SUB ITA
Language                                 : Italian
Default                                  : No
Forced                                   : No

Text #3
ID                                       : 6
Format                                   : UTF-8
Codec ID                                 : S_TEXT/UTF8
Codec ID/Info                            : UTF-8 Plain Text
Title                                    : SUB ENG SDH
Language                                 : English
Default                                  : No
Forced                                   : No

Menu
00:00:00.000                             : :...:::HRS:::...
00:04:40.071                             : :Chapter 2
00:11:29.605                             : :Chapter 3
00:16:39.331                             : :Chapter 4
00:25:54.177                             : :Chapter 5
00:33:44.063                             : :Chapter 6
00:41:44.251                             : :Chapter 7
00:46:41.215                             : :Chapter 8
00:52:10.919                             : :Chapter 9
01:02:31.622                             : :Chapter 10
01:06:16.889                             : :Chapter 11
01:14:17.077                             : :Chapter 12
01:22:34.241                             : :Chapter 13
01:33:21.345                             : :Chapter 14
01:38:27.693                             : :Chapter 15
01:45:40.292                             : :Chapter 16
01:53:54.661                             : :Chapter 17
01:58:31.270                             : :Chapter 18
02:06:19.238                             : :Chapter 19
02:11:30.591                             : :Chapter 20
Info: Per scaricare devi usare un client come uTorrent o Transmission
AnnounceURL
udp://open.demonii.com:1337/announce
Hash d305b5bf08aee4c866264f1496c17a44071c35ba
Peers seeds: 269 , leech: 237
Size 4.09 GB
Completato 1293x
Aggiunto 05.08.15 - 14:08:13
Uploader   TARDIS
Votazione (Voti: 6)


Condividi questo bittorrent:


html/blog:


bbcode/forum:




Aggiungi Commento