* Visualizza .nfo  

Cambiate i DNS con DNS Jumper per i meno esperti (Google DNS o Cloudflare DNS)




General
Unique ID                                : 42518434581373215212056847428600556130 (0x1FFCC0ACADD8218797A77AD698516A62)
Complete name                            : Avengers.Endgame.2019.INTERNAL.UHD.DYNAMIC.HDR-X..TrueHD.Atmos.7.1-Army90.mkv
Format                                   : Matroska
Format version                           : Version 4 / Version 2
File size                                : 88.7 GiB
Duration                                 : 3h 1mn
Overall bit rate mode                    : Variable
Overall bit rate                         : 70.1 Mbps
Movie name                               : Avengers.Endgame.2019.INTERNAL.UHD.DYNAMIC.HDR-X..TrueHD.Atmos.7.1-TEKNO3D
Encoded date                             : UTC 2019-08-08 10:40:50
Writing application                      : mkvmerge v35.0.0 ('All The Love In The World') 64-bit
Writing library                          : libebml v1.3.9 + libmatroska v1.5.2
IMDB                                     : tt4154796
TMDB                                     : movie/299534
DURATION                                 : 03:01:11.353000000
NUMBER_OF_FRAMES                         : 416110
NUMBER_OF_BYTES                          : 173517870
_STATISTICS_WRITING_APP                  : mkvmerge v35.0.0 ('All The Love In The World') 64-bit
_STATISTICS_WRITING_DATE_UTC             : 2019-08-08 10:40:50
_STATISTICS_TAGS                         : BPS DURATION NUMBER_OF_FRAMES NUMBER_OF_BYTES

Video
ID                                       : 1
Format                                   : HEVC
Format/Info                              : High Efficiency Video Coding
Codec ID                                 : V_MPEGH/ISO/HEVC
Duration                                 : 3h 1mn
Width                                    : 3 840 pixels
Height                                   : 2 160 pixels
Display aspect ratio                     : 16:9
Frame rate mode                          : Constant
Frame rate                               : 23.976 fps
Title                                    : Avengers.Endgame.2019.INTERNAL.UHD.DYNAMIC.HDR-X..TrueHD.Atmos.7.1-TEKNO3D
Language                                 : English
Default                                  : Yes
Forced                                   : No

Audio #1
ID                                       : 2
Format                                   : MPEG Audio
Format version                           : Version 1
Format profile                           : Layer 2
Codec ID                                 : A_MPEG/L2
Codec ID/Hint                            : MP2
Duration                                 : 3h 1mn
Bit rate mode                            : Constant
Bit rate                                 : 128 Kbps
Channel count                            : 2 channels
Sampling rate                            : 44.1 KHz
Compression mode                         : Lossy
Stream size                              : 166 MiB (0%)
Language                                 : Italian
Default                                  : No
Forced                                   : No

Audio #2
ID                                       : 3
Format                                   : MPEG Audio
Format version                           : Version 1
Format profile                           : Layer 2
Codec ID                                 : A_MPEG/L2
Codec ID/Hint                            : MP2
Duration                                 : 3h 1mn
Bit rate mode                            : Constant
Bit rate                                 : 128 Kbps
Channel count                            : 2 channels
Sampling rate                            : 44.1 KHz
Compression mode                         : Lossy
Stream size                              : 166 MiB (0%)
Language                                 : Italian
Default                                  : No
Forced                                   : No

Audio #3
ID                                       : 4
Format                                   : TrueHD
Codec ID                                 : A_TRUEHD
Duration                                 : 3h 1mn
Bit rate mode                            : Variable
Maximum bit rate                         : 8 430 Kbps
Channel count                            : 8 channels
Channel positions                        : Front: L C R, Side: L R, Back: L R, LFE
Sampling rate                            : 48.0 KHz
Compression mode                         : Lossless
Title                                    : Dolby TrueHD/Atmos Audio / 7.1-Atmos / 48 kHz / 5417 kbps / 24-bit
Language                                 : English
Default                                  : Yes
Forced                                   : No

Audio #4
ID                                       : 5
Format                                   : AC-3
Format/Info                              : Audio Coding 3
Mode extension                           : CM (complete main)
Format settings, Endianness              : Big
Codec ID                                 : A_AC3
Duration                                 : 3h 1mn
Bit rate mode                            : Constant
Bit rate                                 : 640 Kbps
Channel count                            : 6 channels
Channel positions                        : Front: L C R, Side: L R, LFE
Sampling rate                            : 48.0 KHz
Bit depth                                : 16 bits
Compression mode                         : Lossy
Stream size                              : 829 MiB (1%)
Title                                    : Compatibility Track / Dolby Digital Audio / 5.1 / 48 kHz / 640 kbps
Language                                 : English
Default                                  : No
Forced                                   : No

Audio #5
ID                                       : 6
Format                                   : AC-3
Format/Info                              : Audio Coding 3
Mode extension                           : CM (complete main)
Format settings, Endianness              : Big
Codec ID                                 : A_AC3
Duration                                 : 3h 1mn
Bit rate mode                            : Constant
Bit rate                                 : 192 Kbps
Channel count                            : 2 channels
Channel positions                        : Front: L R
Sampling rate                            : 48.0 KHz
Bit depth                                : 16 bits
Compression mode                         : Lossy
Delay relative to video                  : 166ms
Stream size                              : 249 MiB (0%)
Title                                    : Commentary by directors Joe Russo and Anthony Russo, and writers Christopher Markus and Stephen McFeely
Language                                 : English
Default                                  : No
Forced                                   : No

Audio #6
ID                                       : 10
Format                                   : MPEG Audio
Format version                           : Version 1
Format profile                           : Layer 2
Codec ID                                 : A_MPEG/L2
Codec ID/Hint                            : MP2
Duration                                 : 3h 1mn
Bit rate mode                            : Constant
Bit rate                                 : 128 Kbps
Channel count                            : 2 channels
Sampling rate                            : 44.1 KHz
Compression mode                         : Lossy
Stream size                              : 166 MiB (0%)
Default                                  : No
Forced                                   : No

Text #1
ID                                       : 7
Format                                   : PGS
Muxing mode                              : zlib
Codec ID                                 : S_HDMV/PGS
Codec ID/Info                            : The same subtitle format used on BDs/HD-DVDs
Title                                    : SDH
Language                                 : English
Default                                  : No
Forced                                   : No

Text #2
ID                                       : 8
Format                                   : PGS
Muxing mode                              : zlib
Codec ID                                 : S_HDMV/PGS
Codec ID/Info                            : The same subtitle format used on BDs/HD-DVDs
Language                                 : French
Default                                  : No
Forced                                   : No

Text #3
ID                                       : 9
Format                                   : PGS
Muxing mode                              : zlib
Codec ID                                 : S_HDMV/PGS
Codec ID/Info                            : The same subtitle format used on BDs/HD-DVDs
Title                                    : Latin American
Language                                 : Spanish
Default                                  : No
Forced                                   : No

Menu
00:00:00.000                             : en:One Last Surprise
00:08:06.069                             : en:"To The Garden"
00:20:01.867                             : en:Five Years Later
00:26:15.449                             : en:"A Time Heist"
00:36:57.340                             : en:"Time Travel Do-Over"
00:43:20.765                             : en:"I Fixed It"
00:48:44.338                             : en:Assembling The Avengers
00:57:36.912                             : en:"Get The Stones, Get Them Back"
01:07:12.779                             : en:Rogue Transmission
01:16:02.683                             : en:New York, 2012
01:26:25.597                             : en:Asgard, 2013
01:32:20.285                             : en:Morag, 2014
01:38:55.972                             : en:New Jersey, 1970
01:48:12.528                             : en:Vormir, 2014
01:57:27.082                             : en:"I Was Made For This"
02:05:00.410                             : en:Thanos' Return
02:15:06.598                             : en:Avengers Assemble
02:25:50.617                             : en:One Of The 14,000,605
02:34:38.102                             : en:"Part Of The Journey Is The End"
02:43:04.066                             : en:"Clip All The Branches"
02:49:05.510                             : en:End Credits